Name [I-MAX] Future boy Conan 1978
Torrent [I-MAX] Future boy Conan 1978
Info Hash 94e7224caf05385cf627ed2d833ad08d30fcaa10
Description  Future boy Conan 1978 - Cậu bé tương lai


Mirai Shônen Conan (1978)  
Ratings : 8.7/10 (1,955 users)




Trích:
Đây là một trong các anime của đạo diễn lừng danh Miyazaki Hayao, thuộc nhóm anime thời kì “tiền Ghibli”, khi mà xưởng phim hoạt hình hồi ấy chưa mang tên Ghibli như đông đảo người hâm mộ biết đến hiện nay. Tuy nét vẽ có phần kém hiện đại hơn các anime sau này và chịu nhiều ảnh hưởng bởi phong cách vẽ trước kia , nhất là tạo hình nhân vật (kiểu tóc với trang phục nhìn phát biết ngay ), nhưng màu sắc nhẹ nhàng tươi tắn và nội dung trong sáng, dễ hiểu là điểm không lẫn đi đâu được. Trong Future Boy Conan, bạn sẽ được sống trong thế giới biển rộng lớn cùng bầy hải âu và cậu bé Conan khá thú vị...
Bất chấp lời cảnh bảo của các nhà khoa học về khả năng hai cực của Trái Đất sẽ bị xoắn lại, hai cường quốc lớn vẫn lao vào cuộc chiến tranh sử dụng lực từ. Động đất và sóng thần xảy ra, phá hủy phần lớn nền văn minh nhân loại.
20 năm sau thảm họa, chỉ còn một số nhỏ trẻ em và những người sống sót trên trái đất, trong số đó có cả những người chịu trách nhiệm về thảm họa nói trên. Một số cố gắng tồn tại, sử dụng những công nghệ còn sót lại, trong khi số khác lại lên đường khám phá những phần khác của thế giới nhằm tìm kiếm tương lai rõ ràng hơn. Conan và các bạn của cậu phải chiến đấu chống lại những thế lực đen tối bằng những khả năng siêu nhân của họ và chính tình bạn diệu kì.
Nói chung phần tóm tắt trên đây chủ yếu kể ra bối cảnh của câu chuyện, chứ nội dung chi tiết nó cũng khó kể, vì giống như hầu hết phim khác của Miyazaki, phim hay ở từng chi tiết kết nối thành câu chuyện mềm mại chứ không phải vì nó có nội dung hoành tráng, ly kì.
Trích:
Video
ID : 1
Format : AVC
Format/Info : Advanced Video Codec
Format profile : [email protected]
Format settings, CABAC : Yes
Format settings, ReFrames : 4 frames
Codec ID : avc1
Codec ID/Info : Advanced Video Coding
Duration : 29mn 2s
Bit rate : 173 Kbps
Maximum bit rate : 1 184 Kbps
Width : 640 pixels
Height : 480 pixels
Display aspect ratio : 4:3
Frame rate mode : Constant
Frame rate : 23.976 fps
Color space : YUV
Chroma subsampling : 4:2:0
Bit depth : 8 bits
Scan type : Progressive
Bits/(Pixel*Frame) : 0.023
Stream size : 35.9 MiB (72%)
Writing library : x264 core 125 r2200 999b753

Audio
ID : 2
Format : AAC
Format/Info : Advanced Audio Codec
Format profile : LC
Codec ID : 40
Duration : 29mn 2s
Bit rate mode : Variable
Bit rate : 64.0 Kbps
Maximum bit rate : 86.4 Kbps
Channel(s) : 1 channel
Channel positions : Front: C
Sampling rate : 48.0 KHz
Compression mode : Lossy
Stream size : 13.3 MiB (27%)
Encoded date : UTC 2012-07-22 09:38:40
Tagged date : UTC 2012-07-22 09:38:40









Code:http://www.fshare.vn/folder/T1PDQW49RT
Code:https://mega.co.nz/#F!z9RzALRQ!E_tRoqVRwDn6lFh9SOxV0Q

Trích:
Phụ đề đã mux vào phim

Ghi chú: 
+ Password nếu có : 
+ Ai muốn share đi forum khác thì ghi rõ nguồn và kèm theo những ghi chú này .
+ File chia nhỏ bằng WINRAR đã add 5% Recove Record .
+ Nếu link die , pass sai , lỗi phim , thì phản hồi trong topic hoặc nhắn tin qua hộp thư mình sẽ fix sớm nhất có thể . 


Mời các bạn vào đây tham gia Fanpage của I-MAX


-=CHÚC CÁC BẠN XEM PHIM VUI VẺ=-



--------------------------------------------------------------------------------------------
Link: http://i-max.vn/forum/showthread.php?t=6406
Category Vietsub Anime
Size 1.27 GB
Show/Hide Files
26 files
AddDate 30/11/2015
Uploader vvfakevv
Speed 0 KB/sec
Down 5 times
Peers seeds: 0, leechers: 0 = 0 peers
Keeps 1 (13/03/2019) (Hướng dẫn)
Action Download torrentDownload Stream torrent Stream Report torrent Report Request torrent Reseed Set %dpt Set %dpt
Backup Yes Restore
% upload bonus 100
% download bonus 0
 

No comments...


Back


Back To Top